47846 Posts in 5487 Topics - by 11328 Members - Latest Member: Posh9X1719

Author Topic: Princess Crown / ????????? (J)  (Read 3612 times)

Rep_Plus_^-^

  • Uploader
  • 64-bit
  • *****
  • Posts: 343
Princess Crown / ????????? (J)
« on: May 28, 2009, 12:01:01 AM »
REP_PLUS_^-^ PROUDLY PRESENTS,
TEH

Princess Crown / ????????? [T-14418G]


Front cover


Back cover


Both together


More info

Code: [Select]

[url]http://www.segagagadomain.com/saturn11/princesscrown.htm[/url]


Source of image

Code: [Select]

one of me websites, wav quality tracks, becasue of that cue file
with 2 seconds breaks between every track:

FILE "Princess Crown (J).bin" BINARY
  TRACK 01 MODE1/2352
    INDEX 01 00:00:00
  TRACK 02 AUDIO
    PREGAP 00:02:00
    INDEX 01 08:15:09
  TRACK 03 AUDIO
    INDEX 00 08:57:45
    INDEX 01 08:59:45
  TRACK 04 AUDIO
    INDEX 00 13:08:40
    INDEX 01 13:10:40
  TRACK 05 AUDIO
    INDEX 00 16:25:40
    INDEX 01 16:27:40
  TRACK 06 AUDIO
    INDEX 00 19:47:31
    INDEX 01 19:49:31
  TRACK 07 AUDIO
    INDEX 00 26:16:25
    INDEX 01 26:18:25
  TRACK 08 AUDIO
    INDEX 00 31:54:23
    INDEX 01 31:56:23
  TRACK 09 AUDIO
    INDEX 00 37:32:60
    INDEX 01 37:34:60
  TRACK 10 AUDIO
    INDEX 00 40:43:03
    INDEX 01 40:45:03
  TRACK 11 AUDIO
    INDEX 00 44:34:37
    INDEX 01 44:36:37
  TRACK 12 AUDIO
    INDEX 00 45:55:64
    INDEX 01 45:57:64
  TRACK 13 AUDIO
    INDEX 00 49:21:29
    INDEX 01 49:23:29
  TRACK 14 AUDIO
    INDEX 00 52:58:27
    INDEX 01 53:00:27
  TRACK 15 AUDIO
    INDEX 00 54:22:30
    INDEX 01 54:24:30
  TRACK 16 AUDIO
    INDEX 00 55:16:31
    INDEX 01 55:18:31
  TRACK 17 AUDIO
    INDEX 00 57:35:72
    INDEX 01 57:37:72
  TRACK 18 AUDIO
    INDEX 00 58:11:26
    INDEX 01 58:13:26


Genre & Number of players

Code: [Select]

Action RPG & 1


Developer & Released in

Code: [Select]

Atlus & 1997


Size of image/ archive & Extension, Type of image

Code: [Select]

609 MB/ 419 MB & *.7z, bin/cue


Download links & Pass

Code: [Select]

http://www.mediafire.com/?3dzujgmwyjz
http://www.mediafire.com/?lyzzmb5ntnn
http://www.mediafire.com/?wz2nvzytytc
http://www.mediafire.com/?tmigjufd1yt
http://www.mediafire.com/?znmz1mzjdmn

&

Rep_Plus_^-^



ALL FREE PROGS in *.zip, which are useful for Sega Saturn games,
you can download from:

Code: [Select]
MAIN SOURCE:
http://www.mediafire.com/?oh0avyn0z1v

MIRROR BELOW:
http://www.megaupload.com/?d=L1UU9DR8



We work very hard to bring you these downloads.
Please, if you would be kind enough, use this thread just to say thanks and comment on the game itself.

Problems with Saturn type of images?
Feel free to ask me about it, or go
here(1st) and here(2nd)

My uploads(1st) and Sega Saturn Download Index(2nd)


Click on her to view...